Как тут качать?

5.0 ГБ

  • seeds: -
  • peers: -
Скачать
Эта раздача - обман! (0)
Нормальная раздача (0)

Комиссар Рекс / Il Commissario Rex--
---Год выпуска: 2009-2010
Страна: Италия
Жанр: Детектив
Продолжительность: ~00:46:00
Перевод: профессиональный (многоголосый, закадровый) - от Fox Crime Russia
Русские субтитры: нет
Субтитры: отсутсвуют
Режиссёр: Марко Серафини / Marco Serafini
Оператор: Массимо Лупи / Massimo Lupi
Композитор: Алессандро Молинари / Alessandro Molinari
Продюссеры: Раффаэлло Монтеверде / Raffaello Monteverde, Кристина Дзукиатти / Cristina Zucchiatti, Фердинанд Дона / Ferdinand Dohna
Авторы сценария: Стефано Пьяни / Stefano Piani, Лука Дзеси / Luca Zesi
В ролях: Kaspar Capparoni / Каспар Каппарони, Pilar Abella / Пилар Абелла, Fabio Ferri / Фабио Ферри, Augusto Zucci / Августо Дзукки, ...
Описание: Знаменитый полицейский пёс Рекс возвращается на службу правосудия. Теперь действия происходят в Италии.
Доп. информация: В отличае от релиза с рипами от канала ZDF, в этой раздаче полные итальянские версии серий.
Отдельное спасибо: IgorWWE2010 за видео к 12 серии.
Названия серий 1. Чемпион
2. Кентавры
3. Вой собаки
4. Мой ансамбль играет рок
5. Считаные минуты
6. Отличные парни
7. Кошачьи глаза
8. Название кометы
9. Нераскрытое дело
10. Маэстро, музыку
11. Пропавшая девушка
12. Проклятие Караваджо Над релизом работали fert_n: Запись SATRip.
Fred198: Выкачка SATRip.
MrSherlockHolmes: Оформление релиза, раздача. Когда будут следующие серии? Когда будет время, желание и возможность.
Ваши вопросы не ускорят выкладку серий. Внимание! Раздача ведётся путём добавления новых серий! Внимание! Раздача ведётся путём добавления новых серий; при каждом добавлении создётся новый торрент. Чтобы начать докачку новой серии, пользователям необходимо сделать следующее:
(1) остановить скачивание,
(2) удалить старый торрент у себя из клиента (старые серии удалять не надо),
(3) скачать новый торрент и запустить его у себя в клиенте вместо старого, при этом указать клиенту путь в старую папку куда и должно происходить скачивание новых серий.
Ваш клиент при этом должен произвести хеширование (проверку) старой папки (если не производит сам - помогите ему сделать это), и будет докачивать только те серии которых у вас ещё нет. Старые серии при этом не удаляются, а продолжают раздаваться!
Eсли вы уже удалили старые серии, то предотвратить повторную закачку старых серий можно, отжав галочку в соответсвующих местах при запуске нового торрента. Другие раздачи сериала Другие раздачи сериала MI General
Format : AVI
Format/Info : Audio Video Interleave
File size : 432 MiB
Duration : 45mn 52s
Overall bit rate : 1 316 Kbps
Video
ID : 0
Format : MPEG-4 Visual
Format profile : Advanced Simple@L5
Format settings, BVOP : Yes
Format settings, QPel : No
Format settings, GMC : No warppoints
Format settings, Matrix : Default (H.263)
Muxing mode : Packed bitstream
Codec ID : XVID
Codec ID/Hint : XviD
Duration : 45mn 52s
Bit rate : 1 210 Kbps
Width : 720 pixels
Height : 400 pixels
Display aspect ratio : 16:9
Frame rate : 25.000 fps
Color space : YUV
Chroma subsampling : 4:2:0
Bit depth : 8 bits
Scan type : Progressive
Bits/(Pixel*Frame) : 0.168
Stream size : 397 MiB (92%)
Writing library : XviD 58
Audio
ID : 1
Format : MPEG Audio
Format version : Version 1
Format profile : Layer 3
Codec ID : 55
Codec ID/Hint : MP3
Duration : 45mn 52s
Bit rate mode : Constant
Bit rate : 96.0 Kbps
Channel(s) : 2 channels
Sampling rate : 44.1 KHz
Stream size : 31.5 MiB (7%)
Alignment : Split accross interleaves
Interleave, duration : 40 ms (1.01 video frame)
Качество: SATRip (канал Fox Crime Russia)
Формат: AVI
Видео кодек: XviD
Аудио кодек: MP3
Видео: MPEG4, XviD, 720x400 (16/9), 25.000 fps, 1 210 Kbps (0.168 bit/pixel)
Аудио:MP3, 44.1 KHz, 2 ch, 96.0 Kbps, CBR

сериалы, детективы