Сиды 94  Личи 202

(Ambient/Folk/Black Metal) [CD] Mjolner (Mjölner) - The Pagan Tribute - 2006, FLAC (image+.cue), lossless

Mjolner (Mjölner) / The Pagan Tribute
Жанр: Ambient/Folk/Black Metal
Носитель: CD
Страна-производитель диска: Chile
Год издания: 2006
Издатель (лейбл): Tyrannus Records
Номер по каталогу: Tyr 004 (lim. to 500 copies)
Страна: Chile (Santiago)
Аудиокодек: FLAC (*.flac)
Тип рипа: image+.cue
Битрейт аудио: lossless
Продолжительность: 01:15:49
Источник (релизер): Original CD (Собственный рип)
Наличие сканов в содержимом раздачи: Да (.jpg 600dpi)
Треклист:
01. Voices From... (Root cover) 01:46
02. Frigga's Web (Hagalaz' Runedance cover) 04:35
03. Angrenost 03:48
04. Tótentanz (Aghast cover) 03:26
05. Rea's Garden 05:32
06. Aguas (Bordemar cover) 01:07
07. Sielens Sang (Ulver cover) 01:20
08. Kulleritova 02:08
09. The Gloomy Dance of the Trees 04:58
10. Neslepaks (Isengard cover) 05:39
11. Outro 03:50
12. When the Trees... 07:42
13. Stormblaster 07:31
14. The Triumph of Nebulah 02:04
15. Cosmic Destruction 04:19
16. The Empire of Clouds 06:00
17. Song to Hall Up High (Bathory cover) 02:16
18. Faraway Winterlands 07:40 Лог создания рипа Exact Audio Copy V1.0 beta 2 from 29. April 2011
EAC extraction logfile from 21. December 2013, 16:02
Mjolner / The Pagan Tribute
Used drive : hp DVDRAM GT31L Adapter: 0 ID: 1
Read mode : Secure
Utilize accurate stream : Yes
Defeat audio cache : Yes
Make use of C2 pointers : No
Read offset correction : 103
Overread into Lead-In and Lead-Out : No
Fill up missing offset samples with silence : Yes
Delete leading and trailing silent blocks : No
Null samples used in CRC calculations : Yes
Used interface : Native Win32 interface for Win NT & 2000
Used output format : Internal WAV Routines
Sample format : 44.100 Hz; 16 Bit; Stereo
TOC of the extracted CD
Track | Start | Length | Start sector | End sector
---------------------------------------------------------
1 | 0:00.00 | 1:46.71 | 0 | 8020
2 | 1:46.71 | 4:35.74 | 8021 | 28719
3 | 6:22.70 | 3:48.20 | 28720 | 45839
4 | 10:11.15 | 3:26.36 | 45840 | 61325
5 | 13:37.51 | 5:32.23 | 61326 | 86248
6 | 19:09.74 | 1:07.40 | 86249 | 91313
7 | 20:17.39 | 1:20.39 | 91314 | 97352
8 | 21:38.03 | 2:08.58 | 97353 | 107010
9 | 23:46.61 | 4:58.48 | 107011 | 129408
10 | 28:45.34 | 5:39.19 | 129409 | 154852
11 | 34:24.53 | 3:50.14 | 154853 | 172116
12 | 38:14.67 | 7:42.01 | 172117 | 206767
13 | 45:56.68 | 7:31.12 | 206768 | 240604
14 | 53:28.05 | 2:04.04 | 240605 | 249908
15 | 55:32.09 | 4:19.47 | 249909 | 269380
16 | 59:51.56 | 6:00.31 | 269381 | 296411
17 | 65:52.12 | 2:16.53 | 296412 | 306664
18 | 68:08.65 | 7:41.03 | 306665 | 341242
Range status and errors
Selected range
Filename D:\Torosar\EAC\Mjolner - The Pagan Tribute (2006)\Mjolner - The Pagan Tribute.wav
Peak level 100.0 %
Extraction speed 1.5 X
Range quality 100.0 %
Test CRC 0F5B595D
Copy CRC 0F5B595D
Copy OK
No errors occurred
AccurateRip summary
Track 1 not present in database
Track 2 not present in database
Track 3 not present in database
Track 4 not present in database
Track 5 not present in database
Track 6 not present in database
Track 7 not present in database
Track 8 not present in database
Track 9 not present in database
Track 10 not present in database
Track 11 not present in database
Track 12 not present in database
Track 13 not present in database
Track 14 not present in database
Track 15 not present in database
Track 16 not present in database
Track 17 not present in database
Track 18 not present in database
None of the tracks are present in the AccurateRip database
End of status report
==== Log checksum FDC6A505C40A41F038A4BE6360848AE8E7BB074929FCE77DE0422817478F0FD3 ==== Содержание индексной карты (.CUE) REM GENRE "Pagan Metal"
REM DATE 2006
REM DISCID EF11C512
REM COMMENT "ExactAudioCopy v1.0b2"
PERFORMER "Mjolner"
TITLE "The Pagan Tribute"
FILE "Mjolner - The Pagan Tribute.flac" WAVE
TRACK 01 AUDIO
TITLE "Voices From... (Root cover)"
PERFORMER "Mjolner"
INDEX 01 00:00:00
TRACK 02 AUDIO
TITLE "Frigga's Web (Hagalaz' Runedance cover)"
PERFORMER "Mjolner"
INDEX 01 01:46:71
TRACK 03 AUDIO
TITLE "Angrenost"
PERFORMER "Mjolner"
INDEX 01 06:22:70
TRACK 04 AUDIO
TITLE "Totentanz (Aghast cover)"
PERFORMER "Mjolner"
INDEX 01 10:11:15
TRACK 05 AUDIO
TITLE "Rea's Garden"
PERFORMER "Mjolner"
INDEX 01 13:37:51
TRACK 06 AUDIO
TITLE "Aguas (Bordemar cover)"
PERFORMER "Mjolner"
INDEX 01 19:09:74
TRACK 07 AUDIO
TITLE "Sielens Sang (Ulver cover)"
PERFORMER "Mjolner"
INDEX 01 20:17:39
TRACK 08 AUDIO
TITLE "Kulleritova (Trad.)"
PERFORMER "Mjolner"
INDEX 01 21:38:03
TRACK 09 AUDIO
TITLE "The Gloomy Dance Of The Trees"
PERFORMER "Mjolner"
INDEX 01 23:46:61
TRACK 10 AUDIO
TITLE "Neslepaks (Isengard cover)"
PERFORMER "Mjolner"
INDEX 01 28:45:34
TRACK 11 AUDIO
TITLE "Outro"
PERFORMER "Mjolner"
INDEX 01 34:24:53
TRACK 12 AUDIO
TITLE "When The Trees... (Bonus Rehearsal)"
PERFORMER "Mjolner"
INDEX 01 38:14:67
TRACK 13 AUDIO
TITLE "Stormblaster (Bonus 1996)"
PERFORMER "Mjolner"
INDEX 01 45:56:68
TRACK 14 AUDIO
TITLE "The Triumph Of Nebulah (Bonus 1996)"
PERFORMER "Mjolner"
INDEX 01 53:28:05
TRACK 15 AUDIO
TITLE "Cosmic Destruction (Bonus 1996)"
PERFORMER "Mjolner"
INDEX 01 55:32:09
TRACK 16 AUDIO
TITLE "The Empire Of Clouds (Bonus 1996)"
PERFORMER "Mjolner"
INDEX 01 59:51:56
TRACK 17 AUDIO
TITLE "Song To Hall Up High (Bonus 1996/Bathory cover)"
PERFORMER "Mjolner"
INDEX 01 65:52:12
TRACK 18 AUDIO
TITLE "Faraway Winterlands (Bonus 1996)"
PERFORMER "Mjolner"
INDEX 01 68:08:65 Лог проверки качества -----------------------
DON'T MODIFY THIS FILE
-----------------------
PERFORMER: auCDtect Task Manager, ver. 1.5.1RC4 build 1.5.1.5
Copyright (c) 2008-2010 y-soft. All rights reserved
http://y-soft.org
ANALYZER: auCDtect: CD records authenticity detector, version 0.8.2
Copyright (c) 2004 Oleg Berngardt. All rights reserved.
Copyright (c) 2004 Alexander Djourik. All rights reserved.
FILE: Mjolner - The Pagan Tribute.flac
Size: 503417960 Hash: AF59252FB5C515EC1183A372AD5A3E0D Accuracy: -m0
Conclusion: CDDA 100%
Signature: CE52ED6EB32DAC3906F1510B20C0936069E4FA53 Скриншот спектра частот Об альбоме (сборнике) CD limited to 500 copies and includes the "Doomicus Trip" album 1996 as bonus stuff. Back
© 2009–2014, Torrentino.ru
По всем вопросам обращаться на
admin@torrentino.ru или portlandmedialtd@gmail.com


Правообладателям просьба писать вежливо и своевременно:
admin@torrentino.ru или portlandmedialtd@gmail.com и мы отнесемся к вашей просьбе с пониманием.